<?xml version="1.0" standalone="no"?>
<!DOCTYPE svg PUBLIC "-//W3C//DTD SVG 1.1//EN" "http://www.w3.org/Graphics/SVG/1.1/DTD/svg11.dtd">
<svg xmlns="http://www.w3.org/2000/svg">
<defs >
<font id="IBMPlexSerif" horiz-adv-x="643" ><font-face
    font-family="IBM Plex Serif"
    units-per-em="1000"
    panose-1="2 6 8 3 5 4 6 0 2 3"
    ascent="1025"
    descent="-275"
    alphabetic="0" />
<glyph unicode=" " glyph-name="space" horiz-adv-x="232" />
<glyph unicode="!" glyph-name="exclam" horiz-adv-x="312" d="M156 -12Q112 -12 89 13T66 75V79Q66 115 89 140T156 166Q200 166 223 141T246 79V75Q246 39 223 14T156 -12ZM74 562V698H238V562L186 218H126L74 562Z" />
<glyph unicode="&quot;" glyph-name="quotedbl" horiz-adv-x="480" d="M71 632V748H195V632L154 425H112L71 632ZM285 632V748H409V632L368 425H326L285 632Z" />
<glyph unicode="#" glyph-name="numbersign" horiz-adv-x="639" d="M127 179H21V264H141L169 434H65V519H183L214 698H299L268 519H428L459 698H543L512 519H618V434H498L470 264H574V179H456L425 0H340L371 179H211L180 0H96L127 179ZM225 264H385L414 434H254L225 264Z" />
<glyph unicode="$" glyph-name="dollar" horiz-adv-x="595" d="M259 -3Q205 0 166 11T102 42T64 84T51 135Q51 173 73 195T130 218Q169 218 188 196T208 141Q208 120 197 104T171 77V70Q209 60 261 57V279Q161 302 108 358T54 506Q54 587 109 639T264 700V780H331V701Q382
698 419 687T481 658T517 617T529 568Q529 530 507 508T450 485Q411 485 392 507T372 562Q372 583 382 599T406 626V631Q389 636 370 638T329 642V424L334 423Q437 403 490 352T544 206Q544 162 529 126T485 63T416 19T326 -2V-82H259V-3ZM266 639Q215 631 192
604T168 541Q168 502 189 479T266 440V639ZM324 59Q373 66 398 94T424 162Q424 183 420 199T404 227T374 249T324 265V59Z" />
<glyph unicode="%" glyph-name="percent" horiz-adv-x="924" d="M231 371Q257 371 272 390T287 456V568Q287 614 272 633T231 653Q205 653 190 634T175 568V456Q175 410 190 391T231 371ZM693 45Q719 45 734 64T749 130V242Q749 288 734 307T693 327Q667 327 652
308T637 242V130Q637 84 652 65T693 45ZM231 314Q146 314 99 364T51 512Q51 610 98 660T231 710Q316 710 363 660T411 512Q411 414 364 364T231 314ZM693 -12Q608 -12 561 38T513 186Q513 284 560 334T693 384Q778 384 825 334T873 186Q873 88 826 38T693 -12ZM659
698H739L265 0H185L659 698Z" />
<glyph unicode="&amp;" glyph-name="ampersand" horiz-adv-x="747" d="M288 -12Q223 -12 174 2T92 41T43 102T26 179Q26 218 38 248T74 303T130 347T201 383L193 393Q164 427 143 467T121 554Q121 590 137 619T183 668T251 699T338 710Q385 710 424 702T490 677T533
635T549 575Q549 543 533 518T492 472T434 434T370 404L538 207Q565 260 574 327H508V393H714V327H648Q634 234 585 152L621 110Q641 87 664 77T726 66V0H598Q563 0 538 11T486 48Q446 19 397 4T288 -12ZM337 443Q366 463 382 490T399 553V570Q399 603 383 622T335
642Q303 642 287 623T271 570V553Q271 526 288 502T337 443ZM340 66Q397 66 445 97L243 334Q217 309 207 280T196 216V191Q196 165 206 142T236 102T281 76T340 66Z" />
<glyph unicode="&apos;" glyph-name="quotesingle" horiz-adv-x="266" d="M71 632V748H195V632L154 425H112L71 632Z" />
<glyph unicode="(" glyph-name="parenleft" horiz-adv-x="355" d="M319 -156Q268 -132 218 -89T127 13T61 148T36 312Q36 400 61 475T126 610T217 713T319 780L357 727Q317 697 287 655T237 564T207 459T197 349V275Q197 220 207 165T237 61T287 -31T357 -103L319
-156V-156Z" />
<glyph unicode=")" glyph-name="parenright" horiz-adv-x="355" d="M-2 -103Q38 -73 68 -31T118 60T148 165T158 275V349Q158 404 148 459T118 563T68 655T-2 727L36 780Q87 756 137 713T228 611T294 476T319 312Q319 224 294 149T229 14T138 -89T36 -156L-2 -103Z" />
<glyph unicode="*" glyph-name="asterisk" horiz-adv-x="590" d="M94 326L133 380L244 467L282 438L234 306L195 252L94 326ZM97 492L33 513L72 634L135 612L250 533L236 487L97 492ZM233 681V748H357V681L318 545H272L233 681ZM356 306L308 438L346 467L457 380L496
326L395 252L356 306ZM340 533L455 612L518 634L557 513L493 492L354 487L340 533Z" />
<glyph unicode="+" glyph-name="plus" horiz-adv-x="600" d="M254 261H67V349H254V534H346V349H533V261H346V76H254V261Z" />
<glyph unicode="," glyph-name="comma" horiz-adv-x="283" d="M30 -146Q72 -111 99 -80T138 -12H136Q103 -12 78 11T52 75V79Q52 115 75 140T142 166Q186 166 209 141T232 79V64Q232 34 223 5T199 -52T164 -103T121 -146H30V-146Z" />
<glyph unicode="-" glyph-name="hyphen" horiz-adv-x="398" d="M49 360H349V250H49V360Z" />
<glyph unicode="." glyph-name="period" horiz-adv-x="282" d="M141 -12Q97 -12 74 13T51 75V79Q51 115 74 140T141 166Q185 166 208 141T231 79V75Q231 39 208 14T141 -12Z" />
<glyph unicode="/" glyph-name="slash" horiz-adv-x="428" d="M300 748H392L99 -143H7L300 748Z" />
<glyph unicode="0" glyph-name="zero" horiz-adv-x="600" d="M300 60Q333 60 352 74T380 115T391 183T394 276V422Q394 474 392 514T380 582T352 624T300 638Q267 638 248 624T220 583T209 515T206 422V276Q206 223 208 183T220 116T248 74T300 60ZM300 -12Q166
-12 100 81T34 349Q34 523 100 616T300 710Q434 710 500 617T566 349Q566 175 500 82T300 -12Z" />
<glyph unicode="1" glyph-name="one" horiz-adv-x="600" d="M89 66H244V584L78 526L52 582L282 698H406V66H556V0H89V66Z" />
<glyph unicode="2" glyph-name="two" horiz-adv-x="600" d="M40 110L238 306Q284 351 313 398T343 501V530Q343 588 313 618T231 648Q197 648 173 639V633Q189 622 199 607T209 571Q209 538 189 514T129 490Q93 490 70 513T47 576Q47 604 61 628T103 671T171 699T262
710Q384 710 449 660T515 517Q515 475 500 441T459 376T400 320T331 266L153 134V130H464V218H536V0H40V110Z" />
<glyph unicode="3" glyph-name="three" horiz-adv-x="600" d="M268 -12Q214 -12 172 -2T101 27T57 69T42 122Q42 161 64 184T123 208Q162 208 183 185T204 127Q204 110 194 94T169 66V60Q199 51 236 51Q304 51 337 77T370 172V205Q370 267 336 298T226 329H165V403H226Q298
403 329 432T361 513V537Q361 591 330 619T248 648Q229 648 213 646T185 639V633Q201 625 211 608T222 571Q222 537 202 514T142 490Q105 490 83 513T60 576Q60 603 74 627T116 670T184 699T278 710Q533 710 533 541Q533 507 517 478T473 427T412 391T344 373V365Q381
361 417 349T480 316T525 265T542 193Q542 100 474 44T268 -12Z" />
<glyph unicode="4" glyph-name="four" horiz-adv-x="600" d="M312 161H26V257L297 698H468V275H568V161H468V0H312V161ZM112 275H312V596H308L112 275Z" />
<glyph unicode="5" glyph-name="five" horiz-adv-x="600" d="M269 -12Q215 -12 173 -2T103 27T59 69T44 122Q44 161 66 184T125 208Q164 208 185 185T206 127Q206 110 196 94T171 66V60Q184 56 201 54T236 51Q300 51 336 84T372 190V216Q372 345 254 345Q218 345
191 328T151 287L78 302L105 698H511V552H165L149 341H154Q163 357 176 374T210 404T259 426T324 435Q425 435 484 379T544 219Q544 110 472 49T269 -12Z" />
<glyph unicode="6" glyph-name="six" horiz-adv-x="600" d="M301 -12Q240 -12 192 7T111 63T59 151T41 268Q41 374 73 453T163 587T298 672T469 710L484 655Q354 623 284 548T206 360L209 359Q215 377 228 394T261 425T307 447T365 456Q461 456 510 399T559 236Q559
182 542 137T492 58T411 7T301 -12ZM300 60Q329 60 347 69T374 97T387 140T391 198V222Q391 254 388 279T375 323T347 350T300 360Q271 360 253 351T226 323T213 280T209 222V198Q209 166 212 141T225 97T253 70T300 60Z" />
<glyph unicode="7" glyph-name="seven" horiz-adv-x="600" d="M449 552H134V448H61V698H543V575L317 0H160L449 552Z" />
<glyph unicode="8" glyph-name="eight" horiz-adv-x="600" d="M300 -12Q239 -12 190 0T107 38T54 100T35 187Q35 230 50 261T91 313T148 345T214 360V368Q188 371 160 382T107 413T68 462T52 532Q52 620 119 665T300 710Q414 710 481 665T548 532Q548 491 533
462T493 413T441 382T386 368V360Q419 357 451 346T509 313T549 261T565 187Q565 138 547 101T494 38T410 1T300 -12ZM300 57Q330 57 349 65T378 90T392 130T396 184V205Q396 235 393 258T379 298T349 323T300 332Q270 332 251 324T222 299T208 259T204 205V184Q204
154 207 131T221 91T251 66T300 57ZM300 397Q328 397 344 405T368 428T379 464T381 510V528Q381 553 379 574T369 610T344 633T300 641Q272 641 256 633T232 610T221 574T219 528V510Q219 485 221 464T231 428T256 405T300 397Z" />
<glyph unicode="9" glyph-name="nine" horiz-adv-x="600" d="M116 43Q246 75 316 150T394 338L391 339Q385 321 372 304T339 273T293 251T235 242Q139 242 90 299T41 462Q41 516 58 561T108 640T189 691T299 710Q360 710 408 691T489 635T541 546T559 430Q559
324 527 245T437 111T302 26T131 -12L116 43ZM300 338Q329 338 347 347T374 375T387 418T391 476V500Q391 532 388 557T375 601T347 628T300 638Q271 638 253 629T226 601T213 558T209 500V476Q209 444 212 419T225 375T253 348T300 338Z" />
<glyph unicode=":" glyph-name="colon" horiz-adv-x="303" d="M151 358Q107 358 84 383T61 445V449Q61 485 84 510T151 536Q195 536 218 511T241 449V445Q241 409 218 384T151 358ZM151 -12Q107 -12 84 13T61 75V79Q61 115 84 140T151 166Q195 166 218 141T241
79V75Q241 39 218 14T151 -12Z" />
<glyph unicode=";" glyph-name="semicolon" horiz-adv-x="304" d="M40 -146Q82 -111 109 -80T148 -12H146Q113 -12 88 11T62 75V79Q62 115 85 140T152 166Q196 166 219 141T242 79V64Q242 34 233 5T209 -52T174 -103T131 -146H40V-146ZM152 358Q108 358 85 383T62
445V449Q62 485 85 510T152 536Q196 536 219 511T242 449V445Q242 409 219 384T152 358Z" />
<glyph unicode="&lt;" glyph-name="less" horiz-adv-x="600" d="M90 224V310L510 546V440L201 271V263L510 94V-12L90 224Z" />
<glyph unicode="=" glyph-name="equal" horiz-adv-x="600" d="M67 239H533V151H67V239ZM67 459H533V371H67V459Z" />
<glyph unicode="&gt;" glyph-name="greater" horiz-adv-x="600" d="M90 94L399 263V271L90 440V546L510 310V224L90 -12V94Z" />
<glyph unicode="?" glyph-name="question" horiz-adv-x="519" d="M157 389Q233 393 273 420T313 514V532Q313 589 283 618T205 648Q168 648 149 639V633Q165 625 175 608T186 571Q186 537 166 514T106 490Q69 490 47 513T24 576Q24 604 38 628T80 671T147 699T238
710Q368 710 428 659T488 520Q488 471 469 434T416 372T336 331T235 311V232H157V389ZM197 -12Q153 -12 130 13T107 75V79Q107 115 130 140T197 166Q241 166 264 141T287 79V75Q287 39 264 14T197 -12Z" />
<glyph unicode="@" glyph-name="at" horiz-adv-x="904" d="M452 -120Q357 -120 283 -90T157 -6T78 123T51 291Q51 382 79 459T159 592T285 679T452 710Q541 710 614 684T738 608T818 489T847 334Q847 277 836 228T802 144T745 89T664 69Q607 69 572 95T529 163H524Q515
121 487 95T410 69Q341 69 296 124T250 289Q250 399 295 454T410 509Q455 509 484 488T521 432H527L582 500H635V187Q635 157 645 141T677 124Q711 124 733 168T755 310V348Q755 418 732 474T669 569T573 629T452 650Q383 650 326 625T229 555T166 448T143 310V272Q143
196 165 135T228 30T326 -36T452 -60H677V-100Q654 -105 625 -109T565 -115T505 -119T452 -120ZM446 137Q478 137 497 159T517 205V382Q517 407 498 424T446 441Q412 441 394 416T376 352V226Q376 187 394 162T446 137Z" />
<glyph unicode="A" glyph-name="A" horiz-adv-x="699" d="M14 66H64L281 698H419L636 66H686V0H393V66H473L425 213H197L149 66H229V0H14V66ZM217 282H407L313 576H309L217 282Z" />
<glyph unicode="B" glyph-name="B" horiz-adv-x="704" d="M41 66H111V632H41V698H402Q463 698 507 686T579 651T621 599T635 534Q635 498 623 470T589 423T541 390T484 371V366Q514 362 546 350T604 317T646 266T663 194Q663 101 603 51T422 0H41V66ZM273 71H384Q438
71 467 98T497 174V221Q497 270 468 297T384 324H273V71ZM273 393H366Q469 393 469 488V532Q469 627 366 627H273V393Z" />
<glyph unicode="C" glyph-name="C" horiz-adv-x="665" d="M363 -12Q288 -12 231 15T133 91T73 206T52 348Q52 436 76 504T142 617T237 686T351 710Q383 710 407 704T450 687T480 665T498 640H504V698H620V476H504V521Q504 572 471 603T373 634Q306 634 268 592T230
460V257Q230 210 242 177T275 122T326 90T391 80Q455 80 499 113T567 204L624 171Q611 133 587 100T530 41T454 2T363 -12Z" />
<glyph unicode="D" glyph-name="D" horiz-adv-x="755" d="M41 66H111V632H41V698H367Q439 698 500 675T607 607T677 497T703 349Q703 266 678 201T607 92T501 24T367 0H41V66ZM273 72H338Q388 72 423 82T481 113T514 170T525 257V441Q525 492 515 527T482 584T424
616T338 626H273V72Z" />
<glyph unicode="E" glyph-name="E" horiz-adv-x="658" d="M41 66H111V632H41V698H598V512H482V626H273V400H405V460H479V268H405V328H273V72H490V206H606V0H41V66Z" />
<glyph unicode="F" glyph-name="F" horiz-adv-x="639" d="M41 66H111V632H41V698H598V512H482V626H273V385H405V445H479V253H405V313H273V66H368V0H41V66Z" />
<glyph unicode="G" glyph-name="G" horiz-adv-x="775" d="M363 -12Q295 -12 238 13T139 84T75 197T52 348Q52 436 77 503T147 617T251 686T377 710Q446 710 486 687T540 640H546V698H662V476H546V520Q546 572 514 603T410 634Q319 634 275 588T230 443V252Q230
161 269 115T381 68Q451 68 484 103T517 192V286H417V352H728V286H677V0H622L561 100H554Q549 83 533 64T492 28T434 0T363 -12Z" />
<glyph unicode="H" glyph-name="H" horiz-adv-x="812" d="M41 66H111V632H41V698H343V632H273V395H539V632H469V698H771V632H701V66H771V0H469V66H539V323H273V66H343V0H41V66Z" />
<glyph unicode="I" glyph-name="I" horiz-adv-x="384" d="M41 66H111V632H41V698H343V632H273V66H343V0H41V66Z" />
<glyph unicode="J" glyph-name="J" horiz-adv-x="514" d="M174 -12Q91 -12 52 20T12 102Q12 133 32 156T90 180Q122 180 142 161T163 113Q163 93 156 79T138 59V54Q146 52 154 51T171 50Q208 50 227 73T246 152V632H151V698H478V632H408V205Q408 157 396 117T355
49T283 4T174 -12Z" />
<glyph unicode="K" glyph-name="K" horiz-adv-x="767" d="M41 66H111V632H41V698H343V632H273V350H280L393 474L539 632H469V698H713V632H640L461 446L693 66H753V0H440V66H505L350 336L273 256V66H343V0H41V66Z" />
<glyph unicode="L" glyph-name="L" horiz-adv-x="620" d="M41 66H111V632H41V698H348V632H273V72H463V206H579V0H41V66Z" />
<glyph unicode="M" glyph-name="M" horiz-adv-x="896" d="M41 66H111V632H41V698H293L449 362H453L599 698H855V632H785V66H855V0H553V66H623V575H617L559 429L406 107L254 429L195 575H189V66H259V0H41V66Z" />
<glyph unicode="N" glyph-name="N" horiz-adv-x="791" d="M41 66H111V632H41V698H311L597 201H603V632H533V698H750V632H681V0H535L195 581H189V66H259V0H41V66Z" />
<glyph unicode="O" glyph-name="O" horiz-adv-x="760" d="M380 62Q411 62 438 72T485 103T518 157T530 236V462Q530 508 518 541T486 595T438 626T380 636Q349 636 322 626T275 595T242 541T230 462V236Q230 190 242 157T274 103T322 72T380 62ZM380 -12Q310 -12
250 12T146 81T77 194T52 349Q52 436 77 503T146 616T250 686T380 710Q450 710 510 686T614 617T683 504T708 349Q708 262 683 195T614 82T510 12T380 -12Z" />
<glyph unicode="P" glyph-name="P" horiz-adv-x="681" d="M41 66H111V632H41V698H426Q536 698 590 650T645 507Q645 412 586 359T417 305H273V66H368V0H41V66ZM273 377H372Q423 377 451 401T480 476V527Q480 577 452 601T372 626H273V377Z" />
<glyph unicode="Q" glyph-name="Q" horiz-adv-x="760" d="M524 -184Q467 -184 430 -162T357 -87L302 -4Q246 8 200 37T121 110T70 215T52 349Q52 436 77 503T146 616T250 686T380 710Q450 710 510 686T614 617T683 504T708 349Q708 275 690 216T640 113T563 39T463
-3L530 -85Q547 -107 570 -114T622 -122H639V-184H524ZM380 62Q411 62 438 72T485 103T518 157T530 236V462Q530 508 518 541T486 595T438 626T380 636Q349 636 322 626T275 595T242 541T230 462V236Q230 190 242 157T274 103T322 72T380 62Z" />
<glyph unicode="R" glyph-name="R" horiz-adv-x="735" d="M41 66H111V632H41V698H434Q480 698 519 688T586 657T631 602T647 521Q647 485 635 455T602 403T553 365T492 342L621 125Q641 91 662 79T716 66H721V0H626Q591 0 565 5T519 23T484 53T456 97L348 309H273V66H343V0H41V66ZM273
377H373Q480 377 480 472V531Q480 626 373 626H273V377Z" />
<glyph unicode="S" glyph-name="S" horiz-adv-x="629" d="M319 -12Q289 -12 265 -6T222 11T191 34T172 58H168V0H52V204H168V161Q168 107 206 85T310 62Q379 62 412 90T446 163Q446 185 441 201T422 228T387 248T332 264L287 274Q236 284 194 301T121 347T75 414T58
506Q58 551 74 588T120 653T194 695T296 710Q327 710 351 704T394 687T425 665T443 641H447V698H563V494H447V538Q447 591 410 613T314 636Q246 636 215 608T183 539Q183 516 190 500T212 472T253 452T314 435L356 427Q408 416 449 399T519 354T563 291T578 206Q578
159 560 119T509 50T427 5T319 -12Z" />
<glyph unicode="T" glyph-name="T" horiz-adv-x="710" d="M179 66H274V626H144V512H28V698H682V512H566V626H436V66H531V0H179V66Z" />
<glyph unicode="U" glyph-name="U" horiz-adv-x="769" d="M409 -12Q328 -12 272 4T180 54T128 140T111 267V632H41V698H343V632H273V265Q273 214 280 177T305 115T352 78T426 66Q514 66 549 113T585 262V632H515V698H733V632H663V264Q663 129 603 59T409 -12Z" />
<glyph unicode="V" glyph-name="V" horiz-adv-x="694" d="M66 632H16V698H310V632H230L321 336L380 122H386L449 336L543 632H463V698H678V632H628L416 0H278L66 632Z" />
<glyph unicode="W" glyph-name="W" horiz-adv-x="1027" d="M65 632H15V698H309V632H229L343 141H347L486 698H621L766 141H770L878 632H798V698H1013V632H963L809 0H653L516 504H512L375 0H219L65 632Z" />
<glyph unicode="X" glyph-name="X" horiz-adv-x="727" d="M24 66H89L289 334L94 632H39V698H343V632H278L397 448H403L530 632H465V698H689V632H624L441 384L649 66H704V0H400V66H465L333 270H327L184 66H249V0H24V66Z" />
<glyph unicode="Y" glyph-name="Y" horiz-adv-x="688" d="M184 66H263V279L75 632H25V698H319V632H249L383 370H387L526 632H456V698H663V632H612L425 301V66H504V0H184V66Z" />
<glyph unicode="Z" glyph-name="Z" horiz-adv-x="653" d="M46 70L413 626H177V512H61V698H597V628L230 72H491V206H607V0H46V70Z" />
<glyph unicode="[" glyph-name="bracketleft" horiz-adv-x="355" d="M68 760H328V694H209V-72H328V-138H68V760Z" />
<glyph unicode="\" glyph-name="backslash" horiz-adv-x="428" d="M35 748H127L420 -143H328L35 748Z" />
<glyph unicode="]" glyph-name="bracketright" horiz-adv-x="355" d="M27 -72H146V694H27V760H287V-138H27V-72Z" />
<glyph unicode="^" glyph-name="asciicircum" horiz-adv-x="600" d="M44 347L247 698H353L556 347L479 307L303 591H297L121 307L44 347Z" />
<glyph unicode="_" glyph-name="underscore" horiz-adv-x="560" d="M27 -84H533V-174H27V-84Z" />
<glyph unicode="`" glyph-name="grave" horiz-adv-x="600" d="M147 751L277 814L349 604L300 582L147 751Z" />
<glyph unicode="a" glyph-name="a" horiz-adv-x="571" d="M195 -12Q110 -12 72 27T33 138Q33 293 262 293H332V350Q332 411 309 442T229 473Q208 473 193 470T167 462V457Q177 452 186 439T196 404Q196 374 177 354T120 333Q90 333 70 354T50 407Q50 431 64 454T106
496T175 525T271 536Q380 536 432 490T484 358V66H544V9Q527 -1 500 -6T444 -12Q389 -12 367 13T344 77V79H338Q331 62 321 46T294 17T253 -4T195 -12ZM252 78Q289 78 310 95T332 154V233H278Q230 233 207 213T183 156V140Q183 108 202 93T252 78Z" />
<glyph unicode="b" glyph-name="b" horiz-adv-x="626" d="M376 -12Q318 -12 279 16T225 81H220L150 0H80V647L20 660V717L232 760V446H238Q252 481 287 508T376 536Q424 536 462 517T528 461T569 375T584 262Q584 200 570 150T528 63T463 8T376 -12ZM325 80Q367
80 395 109T423 194V331Q423 387 395 416T325 445Q285 445 259 420T232 353V172Q232 130 258 105T325 80Z" />
<glyph unicode="c" glyph-name="c" horiz-adv-x="535" d="M294 -12Q231 -12 184 9T104 67T55 154T38 263Q38 329 59 379T116 465T202 518T309 536Q401 536 450 498T500 402Q500 364 479 342T421 319Q384 319 364 338T344 390Q344 416 357 433T388 458V464Q378
467 365 470T328 473Q267 473 233 435T199 324V220Q199 154 230 120T316 85Q372 85 405 111T452 172L508 139Q499 114 483 87T440 38T378 2T294 -12Z" />
<glyph unicode="d" glyph-name="d" horiz-adv-x="632" d="M250 -12Q202 -12 164 7T98 63T57 149T42 262Q42 324 56 374T98 461T163 516T250 536Q278 536 300 529T340 509T370 481T389 448H394V647L334 660V717L546 760V101L606 88V31L394 -12V78H389Q375 43 340
16T250 -12ZM301 80Q341 80 367 105T394 172V353Q394 395 368 420T301 445Q259 445 231 416T203 331V194Q203 138 231 109T301 80Z" />
<glyph unicode="e" glyph-name="e" horiz-adv-x="566" d="M294 -12Q232 -12 185 8T105 65T55 152T38 263Q38 326 55 377T105 463T183 517T285 536Q341 536 386 519T462 471T511 394T528 294V260H199V220Q199 153 234 119T327 85Q381 85 414 109T461 169L516 136Q507
111 490 85T446 38T381 2T294 -12ZM199 323H371V337Q371 409 348 438T285 467Q245 467 222 438T199 337V323Z" />
<glyph unicode="f" glyph-name="f" horiz-adv-x="385" d="M37 66H97V454H37V524H97V565Q97 658 155 709T318 760Q353 760 378 752T421 729T446 697T454 660Q454 628 436 608T386 588Q353 588 336 606T319 650Q319 670 327 681T345 696V702Q335 704 321 704Q283
704 266 678T249 592V524H349V454H249V66H329V0H37V66Z" />
<glyph unicode="g" glyph-name="g" horiz-adv-x="580" d="M278 -212Q204 -212 155 -204T77 -181T35 -145T23 -97Q23 -59 55 -36T136 -4V0Q101 8 80 33T58 99Q58 145 88 170T162 206V210Q111 230 84 268T56 363Q56 405 72 437T117 491T187 524T278 536Q314 536
345 530T406 510Q417 620 505 620Q534 620 553 604T573 556Q573 527 556 510T506 492Q469 492 448 517H444V487Q471 465 486 435T502 363Q502 321 486 289T441 235T370 202T279 190Q258 190 239 192T202 198Q174 180 174 152Q174 131 190 121T241 110H357Q411 110
449 100T512 70T547 25T558 -35Q558 -118 489 -165T278 -212ZM279 259Q354 259 354 351V375Q354 467 279 467Q204 467 204 375V351Q204 259 279 259ZM146 -84Q146 -116 171 -131T254 -147H318Q433 -147 433 -79Q433 -46 411 -35T345 -24H175Q161 -35 154 -48T146
-84Z" />
<glyph unicode="h" glyph-name="h" horiz-adv-x="651" d="M27 66H87V647L27 660V717L239 760V441H246Q260 481 295 508T390 536Q486 536 525 488T565 342V66H625V0H358V66H413V337Q413 390 395 412T332 435Q315 435 299 431T269 417T247 393T239 357V66H294V0H27V66Z" />
<glyph unicode="i" glyph-name="i" horiz-adv-x="335" d="M172 593Q130 593 107 616T83 678V683Q83 722 106 745T172 768Q214 768 237 745T261 683V678Q261 639 238 616T172 593ZM37 66H97V423L37 436V493L249 536V66H309V0H37V66Z" />
<glyph unicode="j" glyph-name="j" horiz-adv-x="322" d="M25 -212Q-35 -212 -64 -189T-94 -123Q-94 -93 -76 -73T-26 -53Q6 -53 21 -71T37 -115Q37 -148 19 -161V-165Q24 -166 27 -166T35 -166Q61 -166 76 -143T91 -65V423L31 436V493L243 536V3Q243 -108 187
-160T25 -212ZM166 593Q124 593 101 616T77 678V683Q77 722 100 745T166 768Q208 768 231 745T255 683V678Q255 639 232 616T166 593Z" />
<glyph unicode="k" glyph-name="k" horiz-adv-x="622" d="M27 66H87V647L27 660V717L239 760V264H245L304 334L423 458H363V524H590V458H519L404 345L573 66H618V0H355V66H400L303 252L239 185V66H294V0H27V66Z" />
<glyph unicode="l" glyph-name="l" horiz-adv-x="326" d="M27 66H87V647L27 660V717L239 760V66H299V0H27V66Z" />
<glyph unicode="m" glyph-name="m" horiz-adv-x="971" d="M37 66H97V423L37 436V493L246 536V437H251Q265 477 299 506T396 536Q464 536 502 511T555 437H559Q575 476 613 506T714 536Q808 536 846 488T885 343V66H945V0H681V66H733V337Q733 390 716 412T656 435Q639
435 623 431T595 417T575 392T567 357V66H619V0H363V66H415V337Q415 390 398 412T339 435Q304 435 277 417T249 357V66H301V0H37V66Z" />
<glyph unicode="n" glyph-name="n" horiz-adv-x="662" d="M37 66H97V423L37 436V493L246 536V437H251Q265 477 301 506T400 536Q496 536 535 488T575 342V66H635V0H368V66H423V337Q423 390 405 412T342 435Q325 435 308 431T278 417T257 393T249 357V66H304V0H37V66Z" />
<glyph unicode="o" glyph-name="o" horiz-adv-x="582" d="M291 60Q383 60 383 170V354Q383 464 291 464Q199 464 199 354V170Q199 60 291 60ZM291 -12Q234 -12 188 6T108 60T56 146T38 262Q38 327 56 378T107 464T187 517T291 536Q348 536 394 518T474 464T526
378T544 262Q544 197 526 146T475 60T395 7T291 -12Z" />
<glyph unicode="p" glyph-name="p" horiz-adv-x="633" d="M27 -134H87V423L27 436V493L239 536V446H245Q259 481 294 508T383 536Q431 536 469 517T535 461T576 375T591 262Q591 200 577 150T535 63T470 8T383 -12Q326 -12 292 14T244 76H239V-134H319V-200H27V-134ZM332
80Q374 80 402 109T430 194V331Q430 387 402 416T332 445Q292 445 266 420T239 353V172Q239 130 265 105T332 80Z" />
<glyph unicode="q" glyph-name="q" horiz-adv-x="626" d="M314 -134H394V76H389Q375 41 341 15T250 -12Q202 -12 164 7T98 63T57 149T42 262Q42 324 56 374T98 461T163 516T250 536Q309 536 348 508T401 443H407L476 524H546V-134H606V-200H314V-134ZM301 80Q341
80 367 105T394 172V353Q394 395 368 420T301 445Q259 445 231 416T203 331V194Q203 138 231 109T301 80Z" />
<glyph unicode="r" glyph-name="r" horiz-adv-x="493" d="M37 66H97V423L37 436V493L246 536V437H250Q264 479 295 507T376 536Q425 536 453 510T481 437Q481 397 460 374T401 351Q365 351 346 370T327 417Q327 429 332 439T344 452L343 457Q340 458 334 458Q318
458 303 449T276 426T257 395T249 362V66H329V0H37V66Z" />
<glyph unicode="s" glyph-name="s" horiz-adv-x="508" d="M264 -12Q209 -12 180 8T143 54H139V0H41V156H139V140Q139 101 163 81T241 61Q289 61 311 76T333 122Q333 147 317 160T264 185L217 198Q130 222 89 262T47 372Q47 451 99 493T236 536Q289 536 317 516T353
471H357V524H455V368H357V386Q357 424 334 443T257 463Q181 463 181 408Q181 382 196 366T253 340L296 329Q338 318 370 304T423 271T456 224T467 158Q467 75 411 32T264 -12Z" />
<glyph unicode="t" glyph-name="t" horiz-adv-x="373" d="M207 -10Q147 -10 119 16T90 95V454H20V524H47Q80 524 95 538T125 582L167 669H242V524H357V454H242V68H357V9Q341 2 300 -4T207 -10Z" />
<glyph unicode="u" glyph-name="u" horiz-adv-x="647" d="M257 -12Q161 -12 122 36T82 182V423L22 436V493L234 536V187Q234 134 252 112T315 89Q332 89 349 93T379 107T400 131T408 167V423L348 436V493L560 536V101L620 88V31L411 -12V87H406Q392 47 356 18T257 -12Z" />
<glyph unicode="v" glyph-name="v" horiz-adv-x="564" d="M53 458H6V524H269V458H213L323 131H328L430 458H374V524H558V458H511L341 0H223L53 458Z" />
<glyph unicode="w" glyph-name="w" horiz-adv-x="868" d="M68 458H21V524H278V458H222L297 152H303L407 524H527L644 151H650L722 458H657V524H847V458H800L665 0H554L438 365H432L314 0H203L68 458Z" />
<glyph unicode="x" glyph-name="x" horiz-adv-x="588" d="M12 66H67L205 249L60 458H15V524H299V458H239L329 328H335L428 458H371V524H570V458H515L376 275L527 66H572V0H285V66H345L252 196H246L154 66H211V0H12V66Z" />
<glyph unicode="y" glyph-name="y" horiz-adv-x="571" d="M125 -212Q65 -212 32 -183T-1 -112Q-1 -76 19 -56T76 -36Q111 -36 130 -58T149 -109Q149 -122 145 -133T136 -152L138 -158Q142 -159 149 -159Q175 -159 197 -131T239 -51L249 -25L59 458H11V524H274V458H218L323
155H329L435 458H379V524H563V458H516L306 -54Q295 -81 280 -109T244 -160T194 -197T125 -212Z" />
<glyph unicode="z" glyph-name="z" horiz-adv-x="514" d="M31 62L297 454H137V368H39V524H475V458L209 70H385V156H483V0H31V62Z" />
<glyph unicode="{" glyph-name="braceleft" horiz-adv-x="385" d="M243 -138Q118 -138 118 -17V185Q118 229 90 252T17 275V347Q61 347 89 370T118 437V639Q118 760 243 760H358V694H259V457Q259 430 250 407T225 366T189 336T146 320V302Q168 298 188 286T225
256T250 215T259 165V-72H358V-138H243V-138Z" />
<glyph unicode="|" glyph-name="bar" horiz-adv-x="374" d="M141 760H233V-138H141V760Z" />
<glyph unicode="}" glyph-name="braceright" horiz-adv-x="385" d="M27 -72H126V165Q126 192 135 215T160 256T196 286T239 302V320Q216 324 196 336T160 366T135 407T126 457V694H27V760H142Q267 760 267 639V437Q267 393 295 370T368 347V275Q324 275 296 252T267
185V-17Q267 -138 142 -138H27V-72Z" />
<glyph unicode="~" glyph-name="asciitilde" horiz-adv-x="600" d="M411 230Q374 230 346 239T285 266Q258 280 232 289T175 299Q152 299 134 293T94 271L60 332Q78 358 109 375T189 393Q226 393 254 384T315 357Q342 343 368 334T425 324Q448 324 466 330T506
352L540 291Q522 265 491 248T411 230Z" />
<glyph unicode="&#xa0;" glyph-name="uni00A0" horiz-adv-x="232" />
<glyph unicode="&#xa1;" glyph-name="exclamdown" horiz-adv-x="312" d="M156 358Q112 358 89 383T66 445V449Q66 485 89 510T156 536Q200 536 223 511T246 449V445Q246 409 223 384T156 358ZM74 -38L126 306H186L238 -38V-174H74V-38Z" />
<glyph unicode="&#xa2;" glyph-name="cent" horiz-adv-x="554" d="M271 -10Q214 -5 170 18T97 77T53 160T38 263Q38 322 55 369T103 450T177 505T271 533V630H338V535Q419 531 463 495T507 405Q507 368 487 348T433 328Q398 328 380 347T361 398Q361 421 374 439T407
461V464Q371 473 336 473V78Q388 79 417 106T462 172L517 139Q509 116 494 93T458 48T406 12T338 -9V-114H271V-10ZM273 460Q237 444 218 410T199 324V216Q199 167 218 135T273 89V460Z" />
<glyph unicode="&#xa3;" glyph-name="sterling" horiz-adv-x="594" d="M42 118Q85 137 116 174T148 256Q148 273 145 287T137 316H41V386H105Q91 415 80 446T69 516Q69 561 86 596T135 657T210 696T303 710Q357 710 399 700T470 671T514 628T529 575Q529 536 506
513T447 490Q407 490 388 513T368 569Q368 590 378 606T403 634V640Q392 644 379 646T348 649Q288 649 260 616T232 522Q232 481 239 449T255 386H411V316H271Q274 298 274 280Q274 254 264 231T237 189T196 157T148 136V130H460V223H532V0H42V118Z" />
<glyph unicode="&#xa4;" glyph-name="currency" horiz-adv-x="652" d="M326 108Q252 108 197 140L106 47L30 124L121 216Q89 272 89 349Q89 426 121 482L30 574L106 651L197 558Q252 590 326 590Q400 590 455 558L546 651L622 574L531 482Q563 426 563 349Q563
272 531 216L622 124L546 47L455 140Q400 108 326 108ZM326 180Q371 180 395 209T419 291V407Q419 460 395 489T326 518Q281 518 257 489T233 407V291Q233 238 257 209T326 180Z" />
<glyph unicode="&#xa5;" glyph-name="yen" horiz-adv-x="682" d="M184 66H263V147H106V213H263V291H106V357H221L75 632H25V698H319V632H249L383 370H387L526 632H456V698H663V632H612L457 357H582V291H425V213H582V147H425V66H504V0H184V66Z" />
<glyph unicode="&#xa6;" glyph-name="brokenbar" horiz-adv-x="374" d="M141 220H233V-138H141V220ZM141 760H233V402H141V760Z" />
<glyph unicode="&#xa7;" glyph-name="section" horiz-adv-x="564" d="M258 -160Q211 -160 178 -150T123 -123T91 -84T81 -36Q81 -3 102 17T156 38Q190 38 208 18T226 -29Q226 -49 217 -61T191 -86V-90Q210 -94 225 -96T260 -98Q308 -98 332 -78T356 -22Q356 9
335 27T260 59L215 71Q134 92 93 130T51 227Q51 257 61 281T90 325T132 358T184 381V389Q83 437 83 545Q83 624 142 667T306 710Q352 710 385 700T441 673T473 634T483 586Q483 553 462 533T408 512Q374 512 356 532T338 579Q338 599 347 611T373 636V640Q354 644
339 646T304 648Q256 648 232 628T208 572Q208 541 229 523T304 491L349 479Q430 458 471 420T513 323Q513 293 503 269T474 225T432 192T380 169V161Q481 113 481 5Q481 -74 422 -117T258 -160ZM340 177Q348 183 357 190T375 208T389 232T395 262Q395 300 371
320T283 357L238 369Q230 371 224 373Q216 367 206 359T188 341T175 317T169 288Q169 250 193 230T281 193L326 181Q334 179 340 177Z" />
<glyph unicode="&#xa8;" glyph-name="dieresis" horiz-adv-x="600" d="M191 598Q155 598 135 618T115 671V675Q115 707 135 727T191 748Q227 748 247 728T267 675V671Q267 639 247 619T191 598ZM409 598Q373 598 353 618T333 671V675Q333 707 353 727T409 748Q445
748 465 728T485 675V671Q485 639 465 619T409 598Z" />
<glyph unicode="&#xa9;" glyph-name="copyright" horiz-adv-x="798" d="M407 135Q357 135 320 151T256 197T217 265T204 349Q204 400 220 440T266 507T334 548T419 563Q455 563 483 555T530 531T558 497T568 455Q568 427 552 411T508 395Q482 395 467 410T452
451Q452 470 460 482T482 502V504Q474 507 463 509T433 512Q385 512 359 483T332 399V318Q332 265 360 239T433 213Q474 213 497 233T533 282L577 256Q569 236 556 215T521 176T472 147T407 135ZM399 46Q460 46 511 66T600 123T657 209T678 315V383Q678 440 658
489T600 574T512 631T399 652Q338 652 287 632T198 575T141 489T120 383V315Q120 258 140 209T198 124T286 67T399 46ZM399 -12Q323 -12 260 13T150 85T78 198T52 349Q52 433 78 499T150 613T259 685T399 710Q475 710 538 685T648 613T720 500T746 349Q746 265
720 199T648 85T539 13T399 -12Z" />
<glyph unicode="&#xaa;" glyph-name="ordfeminine" horiz-adv-x="454" d="M161 325Q101 325 74 352T47 430Q47 538 208 538H260V575Q260 617 244 637T188 658Q174 658 163 657T146 652V648Q151 645 157 637T164 611Q164 591 152 578T113 565Q92 565 77 579T62
616Q62 654 103 679T216 705Q292 705 328 673T365 583V379H408V340Q395 333 377 329T338 325Q300 325 284 342T268 386V388H264Q259 377 252 366T232 345T203 331T161 325ZM201 387Q227 387 243 398T260 438V497H219Q184 497 168 482T151 440V431Q151 408 164 398T201
387Z" />
<glyph unicode="&#xab;" glyph-name="guillemotleft" horiz-adv-x="547" d="M35 239V305L231 494L265 452L170 272L265 92L231 50L35 239ZM261 239V305L457 494L491 452L396 272L491 92L457 50L261 239Z" />
<glyph unicode="&#xac;" glyph-name="logicalnot" horiz-adv-x="600" d="M425 261H67V349H517V80H425V261Z" />
<glyph unicode="&#xad;" glyph-name="uni00AD" horiz-adv-x="398" d="M49 360H349V250H49V360Z" />
<glyph unicode="&#xae;" glyph-name="registered" horiz-adv-x="468" d="M133 424H151V584H133V610H252Q282 610 301 597T320 555Q320 533 308 519T275 500L313 437Q318 429 323 427T336 424H338V398H310Q288 398 276 404T255 427L224 489H209V424H225V398H133V424ZM234
339Q265 339 292 349T341 379T374 426T386 489V519Q386 554 374 581T341 628T293 658T234 669Q203 669 176 659T127 629T94 582T82 519V489Q82 454 94 427T127 380T175 350T234 339ZM234 298Q192 298 155 313T91 356T48 422T32 504Q32 548 48 586T91 651T155 694T234
710Q276 710 313 695T377 652T420 586T436 504Q436 460 420 422T377 357T313 314T234 298ZM209 514H235Q262 514 262 540V556Q262 582 235 582H209V514Z" />
<glyph unicode="&#xaf;" glyph-name="overscore" horiz-adv-x="600" d="M139 720H461V630H139V720Z" />
<glyph unicode="&#xb0;" glyph-name="degree" horiz-adv-x="470" d="M235 334Q196 334 163 348T104 387T65 447T51 522Q51 562 65 596T104 656T162 696T235 710Q274 710 307 696T366 657T405 597T419 522Q419 481 405 447T366 388T308 348T235 334ZM235 410Q281
410 308 442T336 522Q336 570 309 602T235 634Q189 634 162 602T134 522Q134 474 161 442T235 410Z" />
<glyph unicode="&#xb1;" glyph-name="plusminus" horiz-adv-x="600" d="M254 355H67V443H254V615H346V443H533V355H346V183H254V355ZM67 88H533V0H67V88Z" />
<glyph unicode="&#xb2;" glyph-name="twosuperior" horiz-adv-x="351" d="M34 413L134 508Q163 535 179 555T196 601V611Q196 637 181 648T142 660Q134 660 126 660T113 657V655Q129 647 129 626Q129 607 119 594T82 580Q62 580 49 593T35 628Q35 661 69 682T161
704Q228 704 267 682T306 605Q306 582 297 565T272 533T237 506T199 480L107 420V412H256V451H317V330H34V413Z" />
<glyph unicode="&#xb3;" glyph-name="threesuperior" horiz-adv-x="341" d="M147 324Q85 324 54 346T22 400Q22 422 36 435T70 448Q93 448 104 437T116 405Q116 393 112 386T100 374V372Q105 370 112 369T128 368Q163 368 179 380T196 424V435Q196 465 181 481T127
498H101V544H126Q161 544 175 561T190 604V612Q190 638 175 649T133 660Q127 660 120 660T108 657V655Q124 645 124 624Q124 607 113 594T78 580Q57 580 44 593T30 628Q30 661 63 682T151 704Q223 704 262 681T301 612Q301 577 275 555T212 528V521Q250 516 278
494T307 431Q307 382 264 353T147 324Z" />
<glyph unicode="&#xb4;" glyph-name="acute" horiz-adv-x="600" d="M251 604L323 814L453 751L300 582L251 604Z" />
<glyph unicode="&#xb5;" glyph-name="mu" horiz-adv-x="652" d="M85 423L25 436V493L237 536V187Q237 134 255 112T318 89Q335 89 352 93T382 107T403 131T411 167V423L351 436V493L563 536V101L623 88V31L414 -12V87H409Q395 47 360 18T267 -12Q235 -12 216 0T188
30L184 28L227 -138V-200H85V423Z" />
<glyph unicode="&#xb6;" glyph-name="paragraph" horiz-adv-x="632" d="M271 -160Q177 -160 128 -125T79 -35Q79 -5 99 19T155 43Q188 43 208 25T229 -24Q229 -48 219 -64T192 -86V-92Q214 -100 232 -102T267 -105Q272 -105 277 -105T287 -104V284Q238 284 196
298T122 338T72 402T54 491Q54 540 72 579T121 644T195 684T287 698H578V632H509V99Q509 -24 447 -92T271 -160ZM355 -84Q397 -60 419 -16T441 95V632H355V-84Z" />
<glyph unicode="&#xb7;" glyph-name="middot" horiz-adv-x="356" d="M178 216Q134 216 111 241T88 303V307Q88 343 111 368T178 394Q222 394 245 369T268 307V303Q268 267 245 242T178 216Z" />
<glyph unicode="&#xb8;" glyph-name="cedilla" horiz-adv-x="600" d="M309 -212Q262 -212 236 -198T197 -169L230 -128Q240 -140 255 -148T290 -156Q311 -156 324 -147T337 -118Q337 -107 326 -94T277 -77L256 -75L277 30H333L315 -57L319 -61Q330 -58 341 -56T364
-54Q396 -54 417 -70T439 -122Q439 -147 428 -164T399 -192T358 -207T309 -212Z" />
<glyph unicode="&#xb9;" glyph-name="onesuperior" horiz-adv-x="350" d="M49 375H139V622L51 591L34 629L173 698H240V375H318V330H49V375Z" />
<glyph unicode="&#xba;" glyph-name="ordmasculine" horiz-adv-x="436" d="M218 374Q284 374 284 451V579Q284 656 218 656Q152 656 152 579V451Q152 374 218 374ZM218 325Q137 325 89 374T40 515Q40 606 88 655T218 705Q299 705 347 656T396 515Q396 424 348
375T218 325Z" />
<glyph unicode="&#xbb;" glyph-name="guillemotright" horiz-adv-x="547" d="M56 92L151 272L56 452L90 494L286 305V239L90 50L56 92ZM282 92L377 272L282 452L316 494L512 305V239L316 50L282 92Z" />
<glyph unicode="&#xbc;" glyph-name="onequarter" horiz-adv-x="836" d="M49 375H139V622L51 591L34 629L173 698H240V375H318V330H49V375ZM686 698H766L240 0H160L686 698ZM671 74H509V146L653 368H768V146H813V74H768V0H671V74ZM556 146H671V309H664L556 146Z" />
<glyph unicode="&#xbd;" glyph-name="onehalf" horiz-adv-x="892" d="M49 375H139V622L51 591L34 629L173 698H240V375H318V330H49V375ZM686 698H766L240 0H160L686 698ZM575 83L675 178Q704 205 720 225T737 271V281Q737 307 722 318T683 330Q675 330 667 330T654
327V325Q670 317 670 296Q670 277 660 264T623 250Q603 250 590 263T576 298Q576 331 610 352T702 374Q769 374 808 352T847 275Q847 252 838 235T813 203T778 176T740 150L648 90V82H797V121H858V0H575V83Z" />
<glyph unicode="&#xbe;" glyph-name="threequarters" horiz-adv-x="782" d="M147 324Q85 324 54 346T22 400Q22 422 36 435T70 448Q93 448 104 437T116 405Q116 393 112 386T100 374V372Q105 370 112 369T128 368Q163 368 179 380T196 424V435Q196 465 181 481T127
498H101V544H126Q161 544 175 561T190 604V612Q190 638 175 649T133 660Q127 660 120 660T108 657V655Q124 645 124 624Q124 607 113 594T78 580Q57 580 44 593T30 628Q30 661 63 682T151 704Q223 704 262 681T301 612Q301 577 275 555T212 528V521Q250 516 278
494T307 431Q307 382 264 353T147 324ZM632 698H712L186 0H106L632 698ZM617 74H455V146L599 368H714V146H759V74H714V0H617V74ZM502 146H617V309H610L502 146Z" />
<glyph unicode="&#xbf;" glyph-name="questiondown" horiz-adv-x="519" d="M281 -186Q151 -186 91 -135T31 4Q31 53 50 90T103 152T183 193T284 213V292H362V135Q286 131 246 104T206 10V-8Q206 -65 236 -94T314 -124Q350 -124 370 -115V-109Q354 -101 344 -84T333
-47Q333 -13 353 10T413 34Q450 34 472 11T495 -52Q495 -80 481 -104T439 -147T372 -175T281 -186ZM322 358Q278 358 255 383T232 445V449Q232 485 255 510T322 536Q366 536 389 511T412 449V445Q412 409 389 384T322 358Z" />
<glyph unicode="&#xc0;" glyph-name="Agrave" horiz-adv-x="699" d="M14 66H64L281 698H419L636 66H686V0H393V66H473L425 213H197L149 66H229V0H14V66ZM217 282H407L313 576H309L217 282ZM197 913L327 976L399 766L350 744L197 913Z" />
<glyph unicode="&#xc1;" glyph-name="Aacute" horiz-adv-x="699" d="M14 66H64L281 698H419L636 66H686V0H393V66H473L425 213H197L149 66H229V0H14V66ZM217 282H407L313 576H309L217 282ZM301 766L373 976L503 913L350 744L301 766Z" />
<glyph unicode="&#xc2;" glyph-name="Acircumflex" horiz-adv-x="699" d="M14 66H64L281 698H419L636 66H686V0H393V66H473L425 213H197L149 66H229V0H14V66ZM217 282H407L313 576H309L217 282ZM169 779L304 956H396L531 779L489 744L350 846L211 744L169 779Z" />
<glyph unicode="&#xc3;" glyph-name="Atilde" horiz-adv-x="699" d="M14 66H64L281 698H419L636 66H686V0H393V66H473L425 213H197L149 66H229V0H14V66ZM217 282H407L313 576H309L217 282ZM425 758Q402 758 379 767T335 788Q314 799 293 809T254 819Q238 819 227
813T194 780L156 818Q181 861 207 889T275 918Q298 918 321 909T365 888Q386 877 407 867T446 856Q462 856 473 862T506 896L544 858Q518 814 492 786T425 758Z" />
<glyph unicode="&#xc4;" glyph-name="Adieresis" horiz-adv-x="699" d="M14 66H64L281 698H419L636 66H686V0H393V66H473L425 213H197L149 66H229V0H14V66ZM217 282H407L313 576H309L217 282ZM241 762Q205 762 185 782T165 835V839Q165 871 185 891T241 912Q277
912 297 892T317 839V835Q317 803 297 783T241 762ZM459 762Q423 762 403 782T383 835V839Q383 871 403 891T459 912Q495 912 515 892T535 839V835Q535 803 515 783T459 762Z" />
<glyph unicode="&#xc5;" glyph-name="Aring" horiz-adv-x="699" d="M14 66H64L281 698H419L636 66H686V0H393V66H473L425 213H197L149 66H229V0H14V66ZM217 282H407L313 576H309L217 282ZM350 776Q375 776 389 791T404 833V893Q404 920 390 935T350 950Q325 950
311 935T296 893V833Q296 806 310 791T350 776ZM350 722Q319 722 293 732T247 761T216 806T205 863Q205 894 216 919T246 964T292 993T350 1004Q381 1004 407 994T453 964T484 920T495 863Q495 832 484 806T454 762T408 733T350 722Z" />
<glyph unicode="&#xc6;" glyph-name="AE" horiz-adv-x="1004" d="M7 66H57L360 632H290V698H944V512H828V626H619V400H751V460H825V268H751V328H619V72H836V206H952V0H387V66H457V213H223L144 66H214V0H7V66ZM259 282H457V632H447L259 282Z" />
<glyph unicode="&#xc7;" glyph-name="Ccedilla" horiz-adv-x="665" d="M372 -212Q325 -212 299 -198T260 -169L293 -128Q303 -140 318 -148T353 -156Q374 -156 387 -147T400 -118Q400 -107 389 -94T340 -77L319 -75L332 -11Q264 -5 212 25T125 102T71 213T52 348Q52
436 76 504T142 617T237 686T351 710Q383 710 407 704T450 687T480 665T498 640H504V698H620V476H504V521Q504 572 471 603T373 634Q306 634 268 592T230 460V257Q230 210 242 177T275 122T326 90T391 80Q455 80 499 113T567 204L624 171Q612 135 590 104T538 48T470
8T388 -11L378 -57L382 -61Q393 -58 404 -56T427 -54Q459 -54 480 -70T502 -122Q502 -147 491 -164T462 -192T421 -207T372 -212Z" />
<glyph unicode="&#xc8;" glyph-name="Egrave" horiz-adv-x="658" d="M41 66H111V632H41V698H598V512H482V626H273V400H405V460H479V268H405V328H273V72H490V206H606V0H41V66ZM187 913L317 976L389 766L340 744L187 913Z" />
<glyph unicode="&#xc9;" glyph-name="Eacute" horiz-adv-x="658" d="M41 66H111V632H41V698H598V512H482V626H273V400H405V460H479V268H405V328H273V72H490V206H606V0H41V66ZM291 766L363 976L493 913L340 744L291 766Z" />
<glyph unicode="&#xca;" glyph-name="Ecircumflex" horiz-adv-x="658" d="M41 66H111V632H41V698H598V512H482V626H273V400H405V460H479V268H405V328H273V72H490V206H606V0H41V66ZM159 779L294 956H386L521 779L479 744L340 846L201 744L159 779Z" />
<glyph unicode="&#xcb;" glyph-name="Edieresis" horiz-adv-x="658" d="M41 66H111V632H41V698H598V512H482V626H273V400H405V460H479V268H405V328H273V72H490V206H606V0H41V66ZM231 762Q195 762 175 782T155 835V839Q155 871 175 891T231 912Q267 912 287 892T307
839V835Q307 803 287 783T231 762ZM449 762Q413 762 393 782T373 835V839Q373 871 393 891T449 912Q485 912 505 892T525 839V835Q525 803 505 783T449 762Z" />
<glyph unicode="&#xcc;" glyph-name="Igrave" horiz-adv-x="384" d="M41 66H111V632H41V698H343V632H273V66H343V0H41V66ZM296 913L426 976L498 766L449 744L296 913Z" />
<glyph unicode="&#xcd;" glyph-name="Iacute" horiz-adv-x="384" d="M41 66H111V632H41V698H343V632H273V66H343V0H41V66ZM400 766L472 976L602 913L449 744L400 766Z" />
<glyph unicode="&#xce;" glyph-name="Icircumflex" horiz-adv-x="384" d="M41 66H111V632H41V698H343V632H273V66H343V0H41V66ZM268 779L403 956H495L630 779L588 744L449 846L310 744L268 779Z" />
<glyph unicode="&#xcf;" glyph-name="Idieresis" horiz-adv-x="384" d="M41 66H111V632H41V698H343V632H273V66H343V0H41V66ZM340 762Q304 762 284 782T264 835V839Q264 871 284 891T340 912Q376 912 396 892T416 839V835Q416 803 396 783T340 762ZM558 762Q522
762 502 782T482 835V839Q482 871 502 891T558 912Q594 912 614 892T634 839V835Q634 803 614 783T558 762Z" />
<glyph unicode="&#xd0;" glyph-name="Eth" horiz-adv-x="755" d="M41 66H111V314H31V385H111V632H41V698H367Q439 698 500 675T607 607T677 497T703 349Q703 266 678 201T607 92T501 24T367 0H41V66ZM273 72H338Q388 72 423 82T481 113T514 170T525 257V441Q525
492 515 527T482 584T424 616T338 626H273V385H383V314H273V72Z" />
<glyph unicode="&#xd1;" glyph-name="Ntilde" horiz-adv-x="791" d="M41 66H111V632H41V698H311L597 201H603V632H533V698H750V632H681V0H535L195 581H189V66H259V0H41V66ZM503 758Q480 758 457 767T413 788Q392 799 371 809T332 819Q316 819 305 813T272 780L234
818Q259 861 285 889T353 918Q376 918 399 909T443 888Q464 877 485 867T524 856Q540 856 551 862T584 896L622 858Q596 814 570 786T503 758Z" />
<glyph unicode="&#xd2;" glyph-name="Ograve" horiz-adv-x="760" d="M380 62Q411 62 438 72T485 103T518 157T530 236V462Q530 508 518 541T486 595T438 626T380 636Q349 636 322 626T275 595T242 541T230 462V236Q230 190 242 157T274 103T322 72T380 62ZM380
-12Q310 -12 250 12T146 81T77 194T52 349Q52 436 77 503T146 616T250 686T380 710Q450 710 510 686T614 617T683 504T708 349Q708 262 683 195T614 82T510 12T380 -12ZM227 913L357 976L429 766L380 744L227 913Z" />
<glyph unicode="&#xd3;" glyph-name="Oacute" horiz-adv-x="760" d="M380 62Q411 62 438 72T485 103T518 157T530 236V462Q530 508 518 541T486 595T438 626T380 636Q349 636 322 626T275 595T242 541T230 462V236Q230 190 242 157T274 103T322 72T380 62ZM380
-12Q310 -12 250 12T146 81T77 194T52 349Q52 436 77 503T146 616T250 686T380 710Q450 710 510 686T614 617T683 504T708 349Q708 262 683 195T614 82T510 12T380 -12ZM331 766L403 976L533 913L380 744L331 766Z" />
<glyph unicode="&#xd4;" glyph-name="Ocircumflex" horiz-adv-x="760" d="M380 62Q411 62 438 72T485 103T518 157T530 236V462Q530 508 518 541T486 595T438 626T380 636Q349 636 322 626T275 595T242 541T230 462V236Q230 190 242 157T274 103T322 72T380 62ZM380
-12Q310 -12 250 12T146 81T77 194T52 349Q52 436 77 503T146 616T250 686T380 710Q450 710 510 686T614 617T683 504T708 349Q708 262 683 195T614 82T510 12T380 -12ZM199 779L334 956H426L561 779L519 744L380 846L241 744L199 779Z" />
<glyph unicode="&#xd5;" glyph-name="Otilde" horiz-adv-x="760" d="M380 62Q411 62 438 72T485 103T518 157T530 236V462Q530 508 518 541T486 595T438 626T380 636Q349 636 322 626T275 595T242 541T230 462V236Q230 190 242 157T274 103T322 72T380 62ZM380
-12Q310 -12 250 12T146 81T77 194T52 349Q52 436 77 503T146 616T250 686T380 710Q450 710 510 686T614 617T683 504T708 349Q708 262 683 195T614 82T510 12T380 -12ZM455 758Q432 758 409 767T365 788Q344 799 323 809T284 819Q268 819 257 813T224 780L186
818Q211 861 237 889T305 918Q328 918 351 909T395 888Q416 877 437 867T476 856Q492 856 503 862T536 896L574 858Q548 814 522 786T455 758Z" />
<glyph unicode="&#xd6;" glyph-name="Odieresis" horiz-adv-x="760" d="M380 62Q411 62 438 72T485 103T518 157T530 236V462Q530 508 518 541T486 595T438 626T380 636Q349 636 322 626T275 595T242 541T230 462V236Q230 190 242 157T274 103T322 72T380 62ZM380
-12Q310 -12 250 12T146 81T77 194T52 349Q52 436 77 503T146 616T250 686T380 710Q450 710 510 686T614 617T683 504T708 349Q708 262 683 195T614 82T510 12T380 -12ZM271 762Q235 762 215 782T195 835V839Q195 871 215 891T271 912Q307 912 327 892T347 839V835Q347
803 327 783T271 762ZM489 762Q453 762 433 782T413 835V839Q413 871 433 891T489 912Q525 912 545 892T565 839V835Q565 803 545 783T489 762Z" />
<glyph unicode="&#xd7;" glyph-name="multiply" horiz-adv-x="600" d="M85 148L238 301L85 454L147 516L300 364L453 516L515 454L362 301L515 148L453 86L300 238L147 86L85 148Z" />
<glyph unicode="&#xd8;" glyph-name="Oslash" horiz-adv-x="760" d="M92 -3L149 78Q103 124 78 192T52 349Q52 436 77 503T146 616T250 686T380 710Q479 710 553 664L607 743L668 701L611 620Q657 574 682 506T708 349Q708 262 683 195T614 82T510 12T380 -12Q281
-12 207 34L153 -45L92 -3ZM500 584Q478 612 447 624T380 636Q348 636 320 626T270 595T236 541T223 462V236Q223 212 228 189L500 584ZM380 62Q412 62 440 72T490 103T524 157T537 236V462Q537 486 532 509L260 114Q282 86 313 74T380 62Z" />
<glyph unicode="&#xd9;" glyph-name="Ugrave" horiz-adv-x="769" d="M409 -12Q328 -12 272 4T180 54T128 140T111 267V632H41V698H343V632H273V265Q273 214 280 177T305 115T352 78T426 66Q514 66 549 113T585 262V632H515V698H733V632H663V264Q663 129 603 59T409
-12ZM276 913L406 976L478 766L429 744L276 913Z" />
<glyph unicode="&#xda;" glyph-name="Uacute" horiz-adv-x="769" d="M409 -12Q328 -12 272 4T180 54T128 140T111 267V632H41V698H343V632H273V265Q273 214 280 177T305 115T352 78T426 66Q514 66 549 113T585 262V632H515V698H733V632H663V264Q663 129 603 59T409
-12ZM380 766L452 976L582 913L429 744L380 766Z" />
<glyph unicode="&#xdb;" glyph-name="Ucircumflex" horiz-adv-x="769" d="M409 -12Q328 -12 272 4T180 54T128 140T111 267V632H41V698H343V632H273V265Q273 214 280 177T305 115T352 78T426 66Q514 66 549 113T585 262V632H515V698H733V632H663V264Q663 129 603
59T409 -12ZM248 779L383 956H475L610 779L568 744L429 846L290 744L248 779Z" />
<glyph unicode="&#xdc;" glyph-name="Udieresis" horiz-adv-x="769" d="M409 -12Q328 -12 272 4T180 54T128 140T111 267V632H41V698H343V632H273V265Q273 214 280 177T305 115T352 78T426 66Q514 66 549 113T585 262V632H515V698H733V632H663V264Q663 129 603
59T409 -12ZM320 762Q284 762 264 782T244 835V839Q244 871 264 891T320 912Q356 912 376 892T396 839V835Q396 803 376 783T320 762ZM538 762Q502 762 482 782T462 835V839Q462 871 482 891T538 912Q574 912 594 892T614 839V835Q614 803 594 783T538 762Z" />
<glyph unicode="&#xdd;" glyph-name="Yacute" horiz-adv-x="688" d="M184 66H263V279L75 632H25V698H319V632H249L383 370H387L526 632H456V698H663V632H612L425 301V66H504V0H184V66ZM339 766L411 976L541 913L388 744L339 766Z" />
<glyph unicode="&#xde;" glyph-name="Thorn" horiz-adv-x="688" d="M41 66H111V632H41V698H342V632H273V548H426Q536 548 590 500T645 357Q645 262 586 209T417 155H273V66H343V0H41V66ZM273 227H372Q423 227 451 251T480 326V377Q480 427 452 451T372 476H273V227Z" />
<glyph unicode="&#xdf;" glyph-name="germandbls" horiz-adv-x="711" d="M460 -12Q417 -12 385 -2T331 24T298 61T287 103Q287 136 307 157T359 178Q391 178 408 159T426 111Q426 88 417 76T398 59V53Q418 45 456 45Q501 45 525 64T549 120Q549 137 545 149T531
170T503 187T458 206L434 215Q374 238 343 275T311 373Q311 410 324 439T358 488T407 519T464 534V573Q464 631 437 659T356 688Q304 688 277 655T249 554V0H37V66H97V454H37V524H97V526Q97 638 160 699T356 760Q422 760 469 743T547 696T591 627T606 545V491H558Q504
491 475 471T445 417Q445 400 449 388T463 366T491 348T536 330L561 321Q621 299 652 262T683 164Q683 126 671 94T632 39T563 2T460 -12Z" />
<glyph unicode="&#xe0;" glyph-name="agrave" horiz-adv-x="571" d="M195 -12Q110 -12 72 27T33 138Q33 293 262 293H332V350Q332 411 309 442T229 473Q208 473 193 470T167 462V457Q177 452 186 439T196 404Q196 374 177 354T120 333Q90 333 70 354T50 407Q50
431 64 454T106 496T175 525T271 536Q380 536 432 490T484 358V66H544V9Q527 -1 500 -6T444 -12Q389 -12 367 13T344 77V79H338Q331 62 321 46T294 17T253 -4T195 -12ZM252 78Q289 78 310 95T332 154V233H278Q230 233 207 213T183 156V140Q183 108 202 93T252 78ZM375
751L505 814L577 604L528 582L375 751Z" />
<glyph unicode="&#xe1;" glyph-name="aacute" horiz-adv-x="571" d="M195 -12Q110 -12 72 27T33 138Q33 293 262 293H332V350Q332 411 309 442T229 473Q208 473 193 470T167 462V457Q177 452 186 439T196 404Q196 374 177 354T120 333Q90 333 70 354T50 407Q50
431 64 454T106 496T175 525T271 536Q380 536 432 490T484 358V66H544V9Q527 -1 500 -6T444 -12Q389 -12 367 13T344 77V79H338Q331 62 321 46T294 17T253 -4T195 -12ZM252 78Q289 78 310 95T332 154V233H278Q230 233 207 213T183 156V140Q183 108 202 93T252 78ZM479
604L551 814L681 751L528 582L479 604Z" />
<glyph unicode="&#xe2;" glyph-name="acircumflex" horiz-adv-x="571" d="M195 -12Q110 -12 72 27T33 138Q33 293 262 293H332V350Q332 411 309 442T229 473Q208 473 193 470T167 462V457Q177 452 186 439T196 404Q196 374 177 354T120 333Q90 333 70 354T50 407Q50
431 64 454T106 496T175 525T271 536Q380 536 432 490T484 358V66H544V9Q527 -1 500 -6T444 -12Q389 -12 367 13T344 77V79H338Q331 62 321 46T294 17T253 -4T195 -12ZM252 78Q289 78 310 95T332 154V233H278Q230 233 207 213T183 156V140Q183 108 202 93T252 78ZM347
617L482 794H574L709 617L667 582L528 684L389 582L347 617Z" />
<glyph unicode="&#xe3;" glyph-name="atilde" horiz-adv-x="571" d="M195 -12Q110 -12 72 27T33 138Q33 293 262 293H332V350Q332 411 309 442T229 473Q208 473 193 470T167 462V457Q177 452 186 439T196 404Q196 374 177 354T120 333Q90 333 70 354T50 407Q50
431 64 454T106 496T175 525T271 536Q380 536 432 490T484 358V66H544V9Q527 -1 500 -6T444 -12Q389 -12 367 13T344 77V79H338Q331 62 321 46T294 17T253 -4T195 -12ZM252 78Q289 78 310 95T332 154V233H278Q230 233 207 213T183 156V140Q183 108 202 93T252 78ZM603
596Q580 596 557 605T513 626Q492 637 471 647T432 657Q416 657 405 651T372 618L334 656Q359 699 385 727T453 756Q476 756 499 747T543 726Q564 715 585 705T624 694Q640 694 651 700T684 734L722 696Q696 652 670 624T603 596Z" />
<glyph unicode="&#xe4;" glyph-name="adieresis" horiz-adv-x="571" d="M195 -12Q110 -12 72 27T33 138Q33 293 262 293H332V350Q332 411 309 442T229 473Q208 473 193 470T167 462V457Q177 452 186 439T196 404Q196 374 177 354T120 333Q90 333 70 354T50 407Q50
431 64 454T106 496T175 525T271 536Q380 536 432 490T484 358V66H544V9Q527 -1 500 -6T444 -12Q389 -12 367 13T344 77V79H338Q331 62 321 46T294 17T253 -4T195 -12ZM252 78Q289 78 310 95T332 154V233H278Q230 233 207 213T183 156V140Q183 108 202 93T252 78ZM419
598Q383 598 363 618T343 671V675Q343 707 363 727T419 748Q455 748 475 728T495 675V671Q495 639 475 619T419 598ZM637 598Q601 598 581 618T561 671V675Q561 707 581 727T637 748Q673 748 693 728T713 675V671Q713 639 693 619T637 598Z" />
<glyph unicode="&#xe5;" glyph-name="aring" horiz-adv-x="571" d="M195 -12Q110 -12 72 27T33 138Q33 293 262 293H332V350Q332 411 309 442T229 473Q208 473 193 470T167 462V457Q177 452 186 439T196 404Q196 374 177 354T120 333Q90 333 70 354T50 407Q50
431 64 454T106 496T175 525T271 536Q380 536 432 490T484 358V66H544V9Q527 -1 500 -6T444 -12Q389 -12 367 13T344 77V79H338Q331 62 321 46T294 17T253 -4T195 -12ZM252 78Q289 78 310 95T332 154V233H278Q230 233 207 213T183 156V140Q183 108 202 93T252 78ZM528
614Q553 614 567 629T582 671V731Q582 758 568 773T528 788Q503 788 489 773T474 731V671Q474 644 488 629T528 614ZM528 560Q497 560 471 570T425 599T394 644T383 701Q383 732 394 757T424 802T470 831T528 842Q559 842 585 832T631 802T662 758T673 701Q673
670 662 644T632 600T586 571T528 560Z" />
<glyph unicode="&#xe6;" glyph-name="ae" horiz-adv-x="854" d="M200 -12Q111 -12 72 27T33 138Q33 293 262 293H332V350Q332 411 309 442T228 473Q208 473 193 470T167 462V457Q177 452 186 439T196 404Q196 374 177 354T120 333Q90 333 70 354T50 407Q50 431
64 454T106 496T175 525T270 536Q329 536 365 516T416 470H422Q429 482 444 494T479 515T524 530T575 536Q631 536 675 519T751 471T799 394T816 294V260H487V220Q487 154 521 120T615 85Q669 85 702 109T749 169L804 136Q795 111 778 85T734 38T669 2T582 -12Q518
-12 467 13T392 78H386Q378 63 364 47T326 18T272 -3T200 -12ZM252 78Q289 78 310 95T332 154V233H278Q230 233 207 213T183 156V140Q183 108 202 93T252 78ZM487 323H659V337Q659 409 636 438T573 467Q533 467 510 438T487 337V323Z" />
<glyph unicode="&#xe7;" glyph-name="ccedilla" horiz-adv-x="535" d="M300 -212Q253 -212 227 -198T188 -169L221 -128Q231 -140 246 -148T281 -156Q302 -156 315 -147T328 -118Q328 -107 317 -94T268 -77L247 -75L260 -10Q206 -4 165 19T95 78T53 161T38 263Q38
329 59 379T116 465T202 518T309 536Q401 536 450 498T500 402Q500 364 479 342T421 319Q384 319 364 338T344 390Q344 416 357 433T388 458V464Q378 467 365 470T328 473Q267 473 233 435T199 324V220Q199 154 230 120T316 85Q372 85 405 111T452 172L508 139Q499
115 484 90T446 44T390 7T315 -11L306 -57L310 -61Q321 -58 332 -56T355 -54Q387 -54 408 -70T430 -122Q430 -147 419 -164T390 -192T349 -207T300 -212Z" />
<glyph unicode="&#xe8;" glyph-name="egrave" horiz-adv-x="566" d="M294 -12Q232 -12 185 8T105 65T55 152T38 263Q38 326 55 377T105 463T183 517T285 536Q341 536 386 519T462 471T511 394T528 294V260H199V220Q199 153 234 119T327 85Q381 85 414 109T461
169L516 136Q507 111 490 85T446 38T381 2T294 -12ZM199 323H371V337Q371 409 348 438T285 467Q245 467 222 438T199 337V323ZM389 751L519 814L591 604L542 582L389 751Z" />
<glyph unicode="&#xe9;" glyph-name="eacute" horiz-adv-x="566" d="M294 -12Q232 -12 185 8T105 65T55 152T38 263Q38 326 55 377T105 463T183 517T285 536Q341 536 386 519T462 471T511 394T528 294V260H199V220Q199 153 234 119T327 85Q381 85 414 109T461
169L516 136Q507 111 490 85T446 38T381 2T294 -12ZM199 323H371V337Q371 409 348 438T285 467Q245 467 222 438T199 337V323ZM493 604L565 814L695 751L542 582L493 604Z" />
<glyph unicode="&#xea;" glyph-name="ecircumflex" horiz-adv-x="566" d="M294 -12Q232 -12 185 8T105 65T55 152T38 263Q38 326 55 377T105 463T183 517T285 536Q341 536 386 519T462 471T511 394T528 294V260H199V220Q199 153 234 119T327 85Q381 85 414 109T461
169L516 136Q507 111 490 85T446 38T381 2T294 -12ZM199 323H371V337Q371 409 348 438T285 467Q245 467 222 438T199 337V323ZM361 617L496 794H588L723 617L681 582L542 684L403 582L361 617Z" />
<glyph unicode="&#xeb;" glyph-name="edieresis" horiz-adv-x="566" d="M294 -12Q232 -12 185 8T105 65T55 152T38 263Q38 326 55 377T105 463T183 517T285 536Q341 536 386 519T462 471T511 394T528 294V260H199V220Q199 153 234 119T327 85Q381 85 414 109T461
169L516 136Q507 111 490 85T446 38T381 2T294 -12ZM199 323H371V337Q371 409 348 438T285 467Q245 467 222 438T199 337V323ZM433 598Q397 598 377 618T357 671V675Q357 707 377 727T433 748Q469 748 489 728T509 675V671Q509 639 489 619T433 598ZM651 598Q615
598 595 618T575 671V675Q575 707 595 727T651 748Q687 748 707 728T727 675V671Q727 639 707 619T651 598Z" />
<glyph unicode="&#xec;" glyph-name="igrave" horiz-adv-x="336" d="M37 66H97V423L37 436V493L249 536V66H309V0H37V66ZM277 751L407 814L479 604L430 582L277 751Z" />
<glyph unicode="&#xed;" glyph-name="iacute" horiz-adv-x="336" d="M37 66H97V423L37 436V493L249 536V66H309V0H37V66ZM381 604L453 814L583 751L430 582L381 604Z" />
<glyph unicode="&#xee;" glyph-name="icircumflex" horiz-adv-x="336" d="M37 66H97V423L37 436V493L249 536V66H309V0H37V66ZM249 617L384 794H476L611 617L569 582L430 684L291 582L249 617Z" />
<glyph unicode="&#xef;" glyph-name="idieresis" horiz-adv-x="336" d="M37 66H97V423L37 436V493L249 536V66H309V0H37V66ZM321 598Q285 598 265 618T245 671V675Q245 707 265 727T321 748Q357 748 377 728T397 675V671Q397 639 377 619T321 598ZM539 598Q503
598 483 618T463 671V675Q463 707 483 727T539 748Q575 748 595 728T615 675V671Q615 639 595 619T539 598Z" />
<glyph unicode="&#xf0;" glyph-name="eth" horiz-adv-x="588" d="M293 -12Q234 -12 188 6T109 59T60 143T42 254Q42 310 55 356T94 435T154 486T234 504Q286 504 322 483T384 419L390 422Q378 467 354 511T297 599L202 541L162 593L253 651Q225 680 194 705T127
748H228Q253 737 278 724T326 695L430 760L470 706L382 653Q416 622 445 584T496 500T530 397T542 274Q542 200 524 146T473 57T394 5T293 -12ZM292 58Q383 58 383 169V305Q383 416 292 416Q201 416 201 305V169Q201 58 292 58Z" />
<glyph unicode="&#xf1;" glyph-name="ntilde" horiz-adv-x="662" d="M37 66H97V423L37 436V493L246 536V437H251Q265 477 301 506T400 536Q496 536 535 488T575 342V66H635V0H368V66H423V337Q423 390 405 412T342 435Q325 435 308 431T278 417T257 393T249 357V66H304V0H37V66ZM415
596Q392 596 369 605T325 626Q304 637 283 647T244 657Q228 657 217 651T184 618L146 656Q171 699 197 727T265 756Q288 756 311 747T355 726Q376 715 397 705T436 694Q452 694 463 700T496 734L534 696Q508 652 482 624T415 596Z" />
<glyph unicode="&#xf2;" glyph-name="ograve" horiz-adv-x="582" d="M291 60Q383 60 383 170V354Q383 464 291 464Q199 464 199 354V170Q199 60 291 60ZM291 -12Q234 -12 188 6T108 60T56 146T38 262Q38 327 56 378T107 464T187 517T291 536Q348 536 394 518T474
464T526 378T544 262Q544 197 526 146T475 60T395 7T291 -12ZM395 751L525 814L597 604L548 582L395 751Z" />
<glyph unicode="&#xf3;" glyph-name="oacute" horiz-adv-x="582" d="M291 60Q383 60 383 170V354Q383 464 291 464Q199 464 199 354V170Q199 60 291 60ZM291 -12Q234 -12 188 6T108 60T56 146T38 262Q38 327 56 378T107 464T187 517T291 536Q348 536 394 518T474
464T526 378T544 262Q544 197 526 146T475 60T395 7T291 -12ZM499 604L571 814L701 751L548 582L499 604Z" />
<glyph unicode="&#xf4;" glyph-name="ocircumflex" horiz-adv-x="582" d="M291 60Q383 60 383 170V354Q383 464 291 464Q199 464 199 354V170Q199 60 291 60ZM291 -12Q234 -12 188 6T108 60T56 146T38 262Q38 327 56 378T107 464T187 517T291 536Q348 536 394
518T474 464T526 378T544 262Q544 197 526 146T475 60T395 7T291 -12ZM367 617L502 794H594L729 617L687 582L548 684L409 582L367 617Z" />
<glyph unicode="&#xf5;" glyph-name="otilde" horiz-adv-x="582" d="M291 60Q383 60 383 170V354Q383 464 291 464Q199 464 199 354V170Q199 60 291 60ZM291 -12Q234 -12 188 6T108 60T56 146T38 262Q38 327 56 378T107 464T187 517T291 536Q348 536 394 518T474
464T526 378T544 262Q544 197 526 146T475 60T395 7T291 -12ZM623 596Q600 596 577 605T533 626Q512 637 491 647T452 657Q436 657 425 651T392 618L354 656Q379 699 405 727T473 756Q496 756 519 747T563 726Q584 715 605 705T644 694Q660 694 671 700T704 734L742
696Q716 652 690 624T623 596Z" />
<glyph unicode="&#xf6;" glyph-name="odieresis" horiz-adv-x="582" d="M291 60Q383 60 383 170V354Q383 464 291 464Q199 464 199 354V170Q199 60 291 60ZM291 -12Q234 -12 188 6T108 60T56 146T38 262Q38 327 56 378T107 464T187 517T291 536Q348 536 394 518T474
464T526 378T544 262Q544 197 526 146T475 60T395 7T291 -12ZM439 598Q403 598 383 618T363 671V675Q363 707 383 727T439 748Q475 748 495 728T515 675V671Q515 639 495 619T439 598ZM657 598Q621 598 601 618T581 671V675Q581 707 601 727T657 748Q693 748 713
728T733 675V671Q733 639 713 619T657 598Z" />
<glyph unicode="&#xf7;" glyph-name="divide" horiz-adv-x="600" d="M300 39Q261 39 240 61T219 118V121Q219 155 240 177T300 200Q339 200 360 178T381 121V118Q381 84 360 62T300 39ZM300 410Q261 410 240 432T219 489V492Q219 526 240 548T300 571Q339 571
360 549T381 492V489Q381 455 360 433T300 410ZM67 349H533V261H67V349Z" />
<glyph unicode="&#xf8;" glyph-name="oslash" horiz-adv-x="582" d="M43 2L97 72Q38 143 38 262Q38 327 56 378T107 464T187 517T291 536Q372 536 432 499L484 565L539 522L485 452Q544 381 544 262Q544 197 526 146T475 60T395 7T291 -12Q210 -12 150 25L98 -41L43
2ZM188 185L376 424Q348 466 291 466Q244 466 216 437T188 356V185ZM291 58Q338 58 366 87T394 168V339L206 100Q234 58 291 58Z" />
<glyph unicode="&#xf9;" glyph-name="ugrave" horiz-adv-x="647" d="M257 -12Q161 -12 122 36T82 182V423L22 436V493L234 536V187Q234 134 252 112T315 89Q332 89 349 93T379 107T400 131T408 167V423L348 436V493L560 536V101L620 88V31L411 -12V87H406Q392
47 356 18T257 -12ZM168 751L298 814L370 604L321 582L168 751Z" />
<glyph unicode="&#xfa;" glyph-name="uacute" horiz-adv-x="647" d="M257 -12Q161 -12 122 36T82 182V423L22 436V493L234 536V187Q234 134 252 112T315 89Q332 89 349 93T379 107T400 131T408 167V423L348 436V493L560 536V101L620 88V31L411 -12V87H406Q392
47 356 18T257 -12ZM272 604L344 814L474 751L321 582L272 604Z" />
<glyph unicode="&#xfb;" glyph-name="ucircumflex" horiz-adv-x="647" d="M257 -12Q161 -12 122 36T82 182V423L22 436V493L234 536V187Q234 134 252 112T315 89Q332 89 349 93T379 107T400 131T408 167V423L348 436V493L560 536V101L620 88V31L411 -12V87H406Q392
47 356 18T257 -12ZM140 617L275 794H367L502 617L460 582L321 684L182 582L140 617Z" />
<glyph unicode="&#xfc;" glyph-name="udieresis" horiz-adv-x="647" d="M257 -12Q161 -12 122 36T82 182V423L22 436V493L234 536V187Q234 134 252 112T315 89Q332 89 349 93T379 107T400 131T408 167V423L348 436V493L560 536V101L620 88V31L411 -12V87H406Q392
47 356 18T257 -12ZM212 598Q176 598 156 618T136 671V675Q136 707 156 727T212 748Q248 748 268 728T288 675V671Q288 639 268 619T212 598ZM430 598Q394 598 374 618T354 671V675Q354 707 374 727T430 748Q466 748 486 728T506 675V671Q506 639 486 619T430 598Z"
/>
<glyph unicode="&#xfd;" glyph-name="yacute" horiz-adv-x="571" d="M125 -212Q65 -212 32 -183T-1 -112Q-1 -76 19 -56T76 -36Q111 -36 130 -58T149 -109Q149 -122 145 -133T136 -152L138 -158Q142 -159 149 -159Q175 -159 197 -131T239 -51L249 -25L59 458H11V524H274V458H218L323
155H329L435 458H379V524H563V458H516L306 -54Q295 -81 280 -109T244 -160T194 -197T125 -212ZM278 604L350 814L480 751L327 582L278 604Z" />
<glyph unicode="&#xfe;" glyph-name="thorn" horiz-adv-x="626" d="M20 -134H80V647L20 660V717L232 760V446H238Q252 481 287 508T376 536Q424 536 462 517T528 461T569 375T584 262Q584 200 570 150T528 63T463 8T376 -12Q319 -12 285 14T237 76H232V-134H312V-200H20V-134ZM325
80Q367 80 395 109T423 194V331Q423 387 395 416T325 445Q285 445 259 420T232 353V172Q232 130 258 105T325 80Z" />
<glyph unicode="&#xff;" glyph-name="ydieresis" horiz-adv-x="571" d="M125 -212Q65 -212 32 -183T-1 -112Q-1 -76 19 -56T76 -36Q111 -36 130 -58T149 -109Q149 -122 145 -133T136 -152L138 -158Q142 -159 149 -159Q175 -159 197 -131T239 -51L249 -25L59 458H11V524H274V458H218L323
155H329L435 458H379V524H563V458H516L306 -54Q295 -81 280 -109T244 -160T194 -197T125 -212ZM218 598Q182 598 162 618T142 671V675Q142 707 162 727T218 748Q254 748 274 728T294 675V671Q294 639 274 619T218 598ZM436 598Q400 598 380 618T360 671V675Q360
707 380 727T436 748Q472 748 492 728T512 675V671Q512 639 492 619T436 598Z" />
<glyph unicode="&#x2013;" glyph-name="endash" horiz-adv-x="592" d="M34 347H558V257H34V347Z" />
<glyph unicode="&#x2014;" glyph-name="emdash" horiz-adv-x="788" d="M34 347H754V257H34V347Z" />
<glyph unicode="&#x2018;" glyph-name="quoteleft" horiz-adv-x="275" d="M135 453Q91 453 68 478T45 540V555Q45 583 53 609T76 661T109 708T146 748H237Q199 717 177 688T144 623H146Q178 623 201 602T225 544V540Q225 504 202 479T135 453Z" />
<glyph unicode="&#x2019;" glyph-name="quoteright" horiz-adv-x="275" d="M36 453Q74 484 96 513T129 578H127Q95 578 72 599T48 657V661Q48 697 71 722T138 748Q182 748 205 723T228 661V646Q228 618 220 591T197 540T164 493T127 453H36V453Z" />
<glyph unicode="&#x201a;" glyph-name="quotesinglbase" horiz-adv-x="284" d="M41 -117Q79 -86 101 -57T134 8H132Q100 8 77 29T53 87V91Q53 127 76 152T143 178Q187 178 210 153T233 91V76Q233 48 225 21T202 -30T169 -77T132 -117H41V-117Z" />
<glyph unicode="&#x201c;" glyph-name="quotedblleft" horiz-adv-x="511" d="M135 453Q91 453 68 478T45 540V555Q45 583 53 609T76 661T109 708T146 748H237Q199 717 177 688T144 623H146Q178 623 201 602T225 544V540Q225 504 202 479T135 453ZM371 453Q327
453 304 478T281 540V555Q281 583 289 609T312 661T345 708T382 748H473Q435 717 413 688T380 623H382Q414 623 437 602T461 544V540Q461 504 438 479T371 453Z" />
<glyph unicode="&#x201d;" glyph-name="quotedblright" horiz-adv-x="511" d="M36 453Q74 484 96 513T129 578H127Q95 578 72 599T48 657V661Q48 697 71 722T138 748Q182 748 205 723T228 661V646Q228 618 220 591T197 540T164 493T127 453H36V453ZM272 453Q310
484 332 513T365 578H363Q331 578 308 599T284 657V661Q284 697 307 722T374 748Q418 748 441 723T464 661V646Q464 618 456 591T433 540T400 493T363 453H272V453Z" />
<glyph unicode="&#x201e;" glyph-name="quotedblbase" horiz-adv-x="511" d="M41 -117Q79 -86 101 -57T134 8H132Q100 8 77 29T53 87V91Q53 127 76 152T143 178Q187 178 210 153T233 91V76Q233 48 225 21T202 -30T169 -77T132 -117H41V-117ZM277 -117Q315 -86
337 -57T370 8H368Q336 8 313 29T289 87V91Q289 127 312 152T379 178Q423 178 446 153T469 91V76Q469 48 461 21T438 -30T405 -77T368 -117H277V-117Z" />
<glyph unicode="&#x2022;" glyph-name="bullet" horiz-adv-x="420" d="M210 145Q175 145 147 156T98 188T68 235T57 295V308Q57 340 67 367T98 415T146 446T210 458Q245 458 273 447T322 415T352 368T363 308V295Q363 263 353 236T322 188T274 157T210 145Z" />
<glyph unicode="&#x2039;" glyph-name="guilsinglleft" horiz-adv-x="321" d="M35 239V305L231 494L265 452L170 272L265 92L231 50L35 239Z" />
<glyph unicode="&#x203a;" glyph-name="guilsinglright" horiz-adv-x="321" d="M56 92L151 272L56 452L90 494L286 305V239L90 50L56 92Z" />
</font>
</defs>
</svg>
